Fickparty – Partyficker – Fuck and Dance – Collection
(Gangbang)

Spielfilme und Clips

Fick Party 62 – Sperma für Jeannie

Hoster:

Screenshots:

Info:

Sperma für Jeannie – Das lassen sich die Gangbanger in Fuck and dance Vol.62 beim Anblick dieser heissen Lady natürlich nicht zwei mal sagen!
Das Partyluder Jeannie hat nur ein einziges auf dieser geilen Fickparty vor Augen:
Das Sperma aus den Schwänzen zum schlucken zu zaubern! Wie man schnell in Fuck and dance Vol.62 sieht, ist dieses geile Vorhaben für sie mehr als ein leichtes Spiel! Lüstern saugt sie den geilen Stechern das Sperma der Reihe nach aus den prall gefüllten Eiern.
Natürlich lässt auch sie sich dabei durch hartes Ficken von weitern Schwänzen zeitlich zu einem Orgasmus hinverzaubern! Sperma für Jeannie das gibt es Fuck and dance Vol.62 ? Doch seht am besten selbst! Tipp!

D:\Fuck.and.Dance.62.Sperma.fuer.Jeannie.und.alle. anderen.Partyluder.German.XXX.DVDRiP.avi
General
Complete name : D:\2 Upload\Partyf\Fuck.and.Dance.62.Sperma.fuer.Jeanni e.und.alle.anderen.Partyluder.German.XXX.DVDRiP.av i
Format : AVI
Format/Info : Audio Video Interleave
File size : 700 MiB
Duration : 1h 17mn
Overall bit rate mode : Variable
Overall bit rate : 1 259 Kbps
Writing application : VirtualDubMod 1.5.10.2 (build 2540/release)
Writing library : VirtualDubMod build 2540/release
Video #0
ID : 0
Format : MPEG-4 Visual
Format profile : Advanced Simple@L5
Format settings, BVOP : 2
Format settings, QPel : No
Format settings, GMC : No warppoints
Format settings, Matrix : Default (H.263)
Codec ID : XVID
Codec ID/Hint : XviD
Duration : 1h 17mn
Bit rate : 1 108 Kbps
Width : 672 pixels
Height : 368 pixels
Display aspect ratio : 1.85:1
Frame rate : 25.000 fps
Color space : YUV
Chroma subsampling : 4:2:0
Bit depth : 8 bits
Scan type : Progressive
Compression mode : Lossy
Bits/(Pixel*Frame) : 0.179
Stream size : 616 MiB (88%)
Writing library : XviD 64
Audio #1
ID : 1
Format : MPEG Audio
Format version : Version 1
Format profile : Layer 3
Mode : Joint stereo
Mode extension : MS Stereo
Codec ID : 55
Codec ID/Hint : MP3
Duration : 1h 17mn
Bit rate mode : Variable
Bit rate : 144 Kbps
Channel(s) : 2 channels
Sampling rate : 48.0 KHz
Compression mode : Lossy
Stream size : 76.6 MiB (11%)
Alignment : Aligned on interleaves
Interleave, duration : 24 ms (0.60 video frame)
Interleave, preload duration : 133 ms
Writing library : LAME3.98r
Encoding settings : -m j -V 4 -q 3 -lowpass 17.5 –abr 144

Passwort:

Das Passwort ist immer: party

Download:

Bitshare.com, Uploaded.net, Share-Online.biz

http://share-links.biz/_f2c470nhkzr/

__________________________________________________ __________________________

Next:

Sperma Party! Auf die Schwänze Fertig los!

(on duty)

The site will still be viewable but certain elements might display incorrectly.







Share this